<?xml version="1.0" standalone="no"?><!DOCTYPE svg PUBLIC "-//W3C//DTD SVG 1.1//EN" "http://www.w3.org/Graphics/SVG/1.1/DTD/svg11.dtd" >
<svg xmlns="http://www.w3.org/2000/svg">
<defs>
    <font id="remixicon" horiz-adv-x="1200">
    <font-face font-family="remixicon"
      units-per-em="1200" ascent="1020"
      descent="180" />
    <missing-glyph horiz-adv-x="0" /><glyph glyph-name="text"
            unicode="&#xF201;"
            horiz-adv-x="1200" d="M650 745V-5H550V745H250V845H950V745H650z" /><glyph glyph-name="delete-bin-line"
            unicode="&#xEC2A;"
            horiz-adv-x="1200" d="M850 720H1100V620H1000V-30C1000 -57.615 977.6149999999998 -80 950 -80H250C222.386 -80 200 -57.615 200 -30V620H100V720H350V870C350 897.614 372.386 920 400 920H800C827.6149999999999 920 850 897.614 850 870V720zM900 620H300V20H900V620zM450 470H550V170H450V470zM650 470H750V170H650V470zM450 820V720H750V820H450z" /><glyph glyph-name="h-1"
            unicode="&#xEDE6;"
            horiz-adv-x="1200" d="M674.9875000000001 20H574.9875000000001V370H224.9875000000001V20H124.9875000000001V820H224.9875000000001V470H574.9875000000001V820H674.9875000000001V20zM1075.0124999999998 620V20H975.0125L974.9875 509.8L874.9875000000001 483V586.5L1000.0125 620H1075.0124999999998z" /><glyph glyph-name="h-2"
            unicode="&#xEDE7;"
            horiz-adv-x="1200" d="M193.75 820V470H543.75V820H643.75V20H543.75V370H193.75V20H93.75V820H193.75zM918.75 620C1022.305 620 1106.25 536.0535 1106.25 432.5C1106.25 389.63 1091.865 350.12 1067.655 318.5400000000001L1060.26 309.49L895.4650000000001 120H1093.75V20H743.75L743.715 97.8000000000001L984.785 375.0950000000001C998.155 390.4600000000001 1006.25 410.5350000000001 1006.25 432.5C1006.25 480.825 967.075 520 918.75 520C872.84 520 835.19 484.645 831.5400000000001 439.675L831.25 432.5H731.25C731.25 536.0535 815.1949999999999 620 918.75 620z" /><glyph glyph-name="bold"
            unicode="&#xEAD1;"
            horiz-adv-x="1200" d="M400 470H625C694.035 470 750 525.9645 750 595C750 664.0355 694.035 720 625 720H400V470zM900 245C900 120.735 799.265 20 675 20H300V820H625C749.265 820 850 719.264 850 595C850 534.7845 826.345 480.095 787.8199999999999 439.7100000000001C854.895 400.765 900 328.15 900 245zM400 370V120H675C744.035 120 800 175.9649999999999 800 245C800 314.035 744.035 370 675 370H400z" /><glyph glyph-name="italic"
            unicode="&#xEE6B;"
            horiz-adv-x="1200" d="M750 20H350V120H496.3305L602.125 720H450V820H850V720H703.67L597.875 120H750V20z" /><glyph glyph-name="code-box-line"
            unicode="&#xEBA7;"
            horiz-adv-x="1200" d="M150 870H1050C1077.615 870 1100 847.614 1100 820V20C1100 -7.615 1077.615 -30 1050 -30H150C122.386 -30 100 -7.615 100 20V820C100 847.614 122.386 870 150 870zM200 770V70H1000V770H200zM1000 420L823.225 243.2249999999999L752.515 313.9350000000001L858.58 420L752.515 526.066L823.225 596.7764999999999L1000 420zM341.4215 420L447.4875 313.9350000000001L376.7765 243.2249999999999L200 420L376.7765 596.7764999999999L447.4875 526.066L341.4215 420zM562.215 170H455.7985L637.785 670H744.2L562.215 170z" /><glyph glyph-name="code-s-line"
            unicode="&#xEBAB;"
            horiz-adv-x="1200" d="M1200 420.0015L917.155 137.1565L846.4449999999999 207.8665L1058.5800000000002 420.0015L846.4449999999999 632.1324999999999L917.155 702.8435L1200 420.0015zM141.4215 420.0015L353.5535 207.8665L282.8425000000001 137.1565L0 420.0015L282.8425000000001 702.8435L353.5535 632.1324999999999L141.4215 420.0015z" /><glyph glyph-name="list-check"
            unicode="&#xEEBA;"
            horiz-adv-x="1200" d="M400 820H1050V720H400V820zM150 845H300V695H150V845zM150 495H300V345H150V495zM150 145H300V-5H150V145zM400 470H1050V370H400V470zM400 120H1050V20H400V120z" /><glyph glyph-name="user-3-line"
            unicode="&#xF256;"
            horiz-adv-x="1200" d="M1000 -105H900V-5C900 77.845 832.845 145 750 145H450C367.1575 145 300 77.845 300 -5V-105H200V-5C200 133.0699999999999 311.929 245 450 245H750C888.0699999999999 245 1000 133.0699999999999 1000 -5V-105zM600 345C434.3145 345 300 479.3149999999999 300 645C300 810.6855 434.3145 945 600 945C765.6850000000001 945 900 810.6855 900 645C900 479.3149999999999 765.6850000000001 345 600 345zM600 445C710.4549999999999 445 800 534.543 800 645C800 755.457 710.4549999999999 845 600 845C489.543 845 400 755.457 400 645C400 534.543 489.543 445 600 445z" /><glyph glyph-name="login-box-line"
            unicode="&#xEED4;"
            horiz-adv-x="1200" d="M250 270H350V20H950V820H350V570H250V870C250 897.614 272.386 920 300 920H1000C1027.6149999999998 920 1050 897.614 1050 870V-30C1050 -57.615 1027.6149999999998 -80 1000 -80H300C272.386 -80 250 -57.615 250 -30V270zM550 470V620L800 420L550 220V370H150V470H550z" /><glyph glyph-name="logout-box-line"
            unicode="&#xEED8;"
            horiz-adv-x="1200" d="M275 120H375V20H975V820H375V720H275V870C275 897.614 297.386 920 325 920H1025C1052.6149999999998 920 1075 897.614 1075 870V-30C1075 -57.615 1052.6149999999998 -80 1025 -80H325C297.386 -80 275 -57.615 275 -30V120zM375 470H725V370H375V220L125 420L375 620V470z" /><glyph glyph-name="information-line"
            unicode="&#xEE59;"
            horiz-adv-x="1200" d="M600 -80C323.8575 -80 100 143.86 100 420C100 696.1424999999999 323.8575 920 600 920C876.14 920 1100 696.1424999999999 1100 420C1100 143.86 876.14 -80 600 -80zM600 20C820.915 20 1000 199.085 1000 420C1000 640.914 820.915 820 600 820C379.086 820 200 640.914 200 420C200 199.085 379.086 20 600 20zM550 670H650V570H550V670zM550 470H650V170H550V470z" /><glyph glyph-name="arrow-left-s-line"
            unicode="&#xEA64;"
            horiz-adv-x="1200" d="M546.9649999999999 419.9980000000001L794.4549999999999 172.5130000000002L723.7450000000001 101.803L405.545 419.9980000000001L723.7450000000001 738.197L794.4549999999999 667.4865000000001L546.9649999999999 419.9980000000001z" /><glyph glyph-name="dashboard-line"
            unicode="&#xEC14;"
            horiz-adv-x="1200" d="M650 -30V470H1050V-30H650zM150 370V870H550V370H150zM450 470V770H250V470H450zM150 -30V270H550V-30H150zM250 70H450V170H250V70zM750 70H950V370H750V70zM650 870H1050V570H650V870zM750 770V670H950V770H750z" /><glyph glyph-name="add-line"
            unicode="&#xEA13;"
            horiz-adv-x="1200" d="M550 470V770H650V470H950V370H650V70H550V370H250V470H550z" /><glyph glyph-name="group-line"
            unicode="&#xEDE3;"
            horiz-adv-x="1200" d="M75 -105C75 115.915 254.086 295 475 295C695.915 295 875 115.915 875 -105H775C775 60.6850000000001 640.6850000000001 195 475 195C309.3145 195 175 60.6850000000001 175 -105H75zM475 345C309.25 345 175 479.25 175 645C175 810.75 309.25 945 475 945C640.75 945 775 810.75 775 645C775 479.25 640.75 345 475 345zM475 445C585.5 445 675 534.5 675 645C675 755.5 585.5 845 475 845C364.5 845 275 755.5 275 645C275 534.5 364.5 445 475 445zM889.185 259.86C1028.22 197.1950000000001 1125 57.4000000000001 1125 -105H1025C1025 16.8 952.415 121.6450000000001 848.1400000000001 168.645L889.185 259.86zM854.81 824.3395C954.72 783.1485 1025 684.8195000000001 1025 570C1025 426.49 915.21 308.74 775 296.12V396.77C859.835 408.89 925 481.8000000000001 925 570C925 639.0325 885.0799999999999 698.6985 827.0500000000001 727.1825L854.81 824.3395z" /><glyph glyph-name="link"
            unicode="&#xEEB2;"
            horiz-adv-x="1200" d="M918.2005625 243.2265625000001L847.4855625 313.9365624999999L918.2005625 384.6465625000001C1015.8305625 482.2765625 1015.8305625 640.5680625 918.2005625 738.1990625C820.5655625 835.8300625 662.2755625 835.8300625 564.6455625000001 738.1990625L493.9345625000001 667.4880625L423.2240625000001 738.1990625L493.9345625000001 808.9095625C630.6205625 945.5930625 852.2255624999999 945.5930625 988.9105625 808.9095625C1125.5905625 672.2260625 1125.5905625 450.6165625 988.9105625 313.9365624999999L918.2005625 243.2265625000001zM776.7755625 101.8015625L706.0655625 31.0915625C569.3855625 -105.5934375 347.7755625000001 -105.5934375 211.0920625 31.0915625C74.4085625000001 167.7765625 74.4085625000001 389.3815625 211.0920625 526.0670625L281.8025625 596.7775625L352.5130625000001 526.0670625L281.8025625 455.3565625C184.1715625000001 357.7265625 184.1715625000001 199.4315625 281.8025625 101.8015625C379.4335625 4.1715625 537.7255625 4.1715625 635.3555625 101.8015625L706.0655625 172.5115625L776.7755625 101.8015625zM741.4205625 632.1330624999999L812.1305625 561.4220624999999L458.5790625000001 207.8665625L387.8685625000001 278.5815624999999L741.4205625 632.1330624999999z" /><glyph glyph-name="hashtag"
            unicode="&#xEDFC;"
            horiz-adv-x="1200" d="M389.214 320L410.235 520H200V620H420.7455000000001L447.0215 870H547.5699999999999L521.2950000000001 620H720.745L747.02 870H847.5699999999999L821.295 620H1000V520H810.7849999999999L789.765 320H1000V220H779.255L752.98 -30H652.4300000000001L678.7049999999999 220H479.2545L452.9785000000001 -30H352.4275L378.7035 220H200V320H389.214zM489.765 320H689.215L710.235 520H510.785L489.765 320z" /><glyph glyph-name="loader-4-line"
            unicode="&#xEEC6;"
            horiz-adv-x="1200" d="M918.2 738.198L847.485 667.4875C784.15 730.825 696.65 770 600 770C406.7005 770 250 613.2995000000001 250 420C250 226.7000000000001 406.7005 70 600 70C793.3 70 950 226.7000000000001 950 420H1050C1050 171.4699999999999 848.5300000000001 -30 600 -30C351.472 -30 150 171.4699999999999 150 420C150 668.528 351.472 870 600 870C724.265 870 836.765 819.632 918.2 738.198z" /><glyph glyph-name="equalizer-line"
            unicode="&#xEC9D;"
            horiz-adv-x="1200" d="M308.5355 120C329.127 178.26 384.689 220 450 220C515.3100000000001 220 570.875 178.26 591.465 120H1100V20H591.465C570.875 -38.26 515.3100000000001 -80 450 -80C384.689 -80 329.127 -38.26 308.5355 20H100V120H308.5355zM608.535 470C629.125 528.2595000000001 684.6899999999999 570 750 570C815.3100000000001 570 870.875 528.2595000000001 891.465 470H1100V370H891.465C870.875 311.74 815.3100000000001 270 750 270C684.6899999999999 270 629.125 311.74 608.535 370H100V470H608.535zM308.5355 820C329.127 878.2595 384.689 920 450 920C515.3100000000001 920 570.875 878.2595 591.465 820H1100V720H591.465C570.875 661.7405 515.3100000000001 620 450 620C384.689 620 329.127 661.7405 308.5355 720H100V820H308.5355zM450 720C477.614 720 500 742.386 500 770C500 797.614 477.614 820 450 820C422.386 820 400 797.614 400 770C400 742.386 422.386 720 450 720zM750 370C777.615 370 800 392.385 800 420C800 447.615 777.615 470 750 470C722.385 470 700 447.615 700 420C700 392.385 722.385 370 750 370zM450 20C477.614 20 500 42.3850000000001 500 70C500 97.6149999999999 477.614 120 450 120C422.386 120 400 97.6149999999999 400 70C400 42.3850000000001 422.386 20 450 20z" /><glyph glyph-name="file-copy-line"
            unicode="&#xECD5;"
            horiz-adv-x="1200" d="M349.995 720V870C349.995 897.614 372.381 920 399.995 920H999.995C1027.6100000000001 920 1049.995 897.614 1049.995 870V170C1049.995 142.3850000000001 1027.6100000000001 120 999.995 120H849.995V-29.9549999999999C849.995 -57.595 827.5 -80 799.655 -80H200.338C172.5345 -80 150.005 -57.77 150.005 -29.9549999999999L150.135 669.9565C150.14 697.5945 172.637 720 200.476 720H349.995zM250.126 620L250.0145 20H749.995V620H250.126zM449.995 720H849.995V220H949.995V820H449.995V720z" /><glyph glyph-name="check-line"
            unicode="&#xEB7B;"
            horiz-adv-x="1200" d="M493.9345000000001 260.9005L953.5545 720.5195000000001L1024.2645 649.809L493.9345000000001 119.4805L175.7355 437.6755L246.4460000000001 508.3855L493.9345000000001 260.9005z" /><glyph glyph-name="pencil-line"
            unicode="&#xEFE0;"
            horiz-adv-x="1200" d="M787.1306249999999 536.4213125000001L716.420625 607.1323125000001L250.7356249999999 141.4458125000001V70.7358125H321.4461249999999L787.1306249999999 536.4213125000001zM857.8406249999999 607.1323125000001L928.550625 677.8428125L857.8406249999999 748.5533125L787.1306249999999 677.8428125L857.8406249999999 607.1323125000001zM362.8676249999999 -29.2641875H150.7356249999999V182.8658125L822.4856249999998 854.6193125C842.015625 874.1458124999999 873.670625 874.1458124999999 893.195625 854.6193125L1034.620625 713.1983124999999C1054.145625 693.6718125 1054.145625 662.0138125000001 1034.620625 642.4873124999999L362.8676249999999 -29.2641875z" /><glyph glyph-name="close-line"
            unicode="&#xEB99;"
            horiz-adv-x="1200" d="M600.002 490.7080000000001L847.4869999999999 738.197L918.197 667.4865000000001L670.712 419.9980000000001L918.197 172.5130000000002L847.4869999999999 101.803L600.002 349.288L352.5135 101.803L281.803 172.5130000000002L529.2919999999999 419.9980000000001L281.803 667.4865000000001L352.5135 738.197L600.002 490.7080000000001z" /></font>
</defs>
</svg>
